Dont Miss To Get Latest Movies and Tv Show Direct In Your Inbox Enter your email address:  

Speckles The Tarbosaurus (2012) Hindi Dubbed Movie 720p

March 14, 2019 Hindi Dubbed 720p

Changed Domain Please Use Our New Domain https://7starhd.cam 

Download Here                   Watch Now

Speckles The Tarbosaurus (2012) Hindi Dubbed Movie 720p.mkv

IMDB Link

General
Complete name : Speckles The Tarbosaurus (2012) Hindi Dubbed.mp4
Format : MPEG-4
Format profile : Base Media
Codec ID : isom (isom/iso2/avc1/mp41)
File size : 595 MiB
Duration : 1 h 28 min
Overall bit rate : 938 kb/s
Movie name : www.watchonlinemovies.com.pk
Writing application : Lavf57.83.100

Video
Format : AVC
Format/Info : Advanced Video Codec
Format profile : [email protected]
Format settings, CABAC : Yes
Format settings, RefFrames : 4 frames
Codec ID : avc1
Codec ID/Info : Advanced Video Coding
Duration : 1 h 28 min
Bit rate : 916 kb/s
Width : 1 280 pixels
Height : 720 pixels
Display aspect ratio : 16:9
Frame rate mode : Constant
Frame rate : 25.000 FPS
Color space : YUV
Chroma subsampling : 4:2:0
Bit depth : 8 bits
Scan type : Progressive
Bits/(Pixel*Frame) : 0.040
Stream size : 564 MiB (95%)

Audio
Format : AAC
Format/Info : Advanced Audio Codec
Format profile : LC
Codec ID : 40
Duration : 1 h 28 min
Duration_LastFrame : -8 ms
Bit rate mode : Constant
Bit rate : 42.5 kb/s
Channel(s) : 2 channels
Channel positions : Front: L R
Sampling rate : 48.0 kHz
Frame rate : 46.875 FPS (1024 SPF)
Compression mode : Lossy
Stream size : 27.0 MiB (5%)
Language : Hindi
Default : Yes
Alternate group : 1








indishare Link

TheFilesLocker Link

MegaUp Link

OpenLoad Link

UserscLoud Link

ClicknupLoad Link

BDupload Link

UpPom Link

UploadBuzz Link

Note: If you Can’t See the links Please Use VPN or any proxy thanks

Download Here                   Watch Now
How to Download ? ]

Comments